<?xml version="1.0" standalone="no"?>
<!DOCTYPE svg PUBLIC "-//W3C//DTD SVG 1.1//EN" "http://www.w3.org/Graphics/SVG/1.1/DTD/svg11.dtd" >
<svg xmlns="http://www.w3.org/2000/svg">
<metadata>Generated by IcoMoon</metadata>
<defs>
<font id="Netrunner" horiz-adv-x="1024">
<font-face units-per-em="1024" ascent="870.4" descent="-153.6" />
<missing-glyph horiz-adv-x="1024" />
<glyph unicode="&#x20;" d="" horiz-adv-x="512" />
<glyph unicode="&#xe600;" d="M268.592 793.25l259.702-233.965v-435.173l-259.702-233.963-259.701 233.963v435.173l259.701 233.965zM467.461 152.189v379.019l-198.87 177.814-191.85-175.473 191.85-182.493v-198.869l-198.87 189.51v-189.51l198.87-175.472 198.87 175.472z" horiz-adv-x="533" />
<glyph unicode="&#xe601;" d="M567.555 147.382h-172.701v59.082h113.619v436.297h-436.297v-436.297h156.794v-59.082h-215.876v554.459h554.459zM840.24-100.304h-554.459v554.459h170.428v-56.809h-111.346v-438.569h436.297v438.569h-156.794v56.809h215.876z" horiz-adv-x="853" />
<glyph unicode="&#xe602;" d="M972 339.334c0 22 14 40 32 40l18 2-4 16c-14 108-70 204-154 264l-4 4h-700l-4-4c-82-60-138-156-154-264l-2-16 16-2c18 0 34-18 34-40 0-20-16-38-34-40l-16-2 2-16c16-108 72-204 154-264l4-4h700l4 4c84 60 140 156 154 264l4 16-18 2c-18 2-32 20-32 40zM850 45.334h-680c-70 52-118 134-134 226 26 10 44 38 44 68 0 32-18 58-44 68 16 92 64 174 134 226h680c70-52 120-134 136-226-26-10-46-36-46-68 0-30 20-58 46-68-16-92-66-174-136-226zM470 385.334l20 64-20 4-24 8 24 88 4 10h-54v-172h-176v172h-80v-196h300zM866 313.334c-10 14-20 24-36 30h-268l-28-64-34-76-30-68-4-10 4 20 30 132 12 54-12 2-30 8-8 2h-298v-224h80v192h176v-192h268c50 0 84 2 96 2 22 4 40 10 54 22 14 12 26 26 34 46 10 18 14 38 14 58 0 26-8 48-20 66zM808 201.334c-8-10-18-16-30-18-8-2-26-4-54-4h-118v118h108c36 0 60-2 70-6 12-4 20-10 26-20 6-8 8-20 8-34 0-14-4-28-10-36zM850 391.334c10 18 16 38 16 58 0 18-4 36-12 52-8 14-18 28-30 36-14 10-26 16-42 18-16 4-40 4-70 4h-172l-6-20-14-38 14-4 34-10-44-110 44-14h256c10 8 20 16 26 28zM792 423.334c-8-10-18-14-32-16-8-2-28-2-58-2h-96v102h90c36 0 60 0 68-2 14-2 24-6 30-14 6-10 10-20 10-34 0-14-4-26-12-34z" />
<glyph unicode="&#xe603;" d="M247.5 119.001c-11.5 0-17.25 5.75-23 13.417-61.333 59.417-120.75 118.833-180.167 178.25-28.75 28.75-32.583 24.917 0 57.5 97.75 97.75 195.5 195.5 293.25 293.25 49.833 51.75 99.667 103.5 149.5 153.333 19.167 17.25 19.167 19.167 36.417 0 57.5-59.417 111.167-116.917 168.667-176.333 34.5-36.417 70.917-72.833 105.417-109.25 13.417-13.417 15.333-23 1.917-36.417-3.833-5.75-7.667-11.5-11.5-15.333-13.417-19.167-17.25-19.167-34.5-1.917-76.667 70.917-155.25 143.75-233.833 214.667-9.583 9.583-17.25 9.583-26.833 0-70.917-65.167-141.833-130.333-212.75-197.417-53.667-51.75-109.25-99.667-164.833-151.417-17.25-17.25-17.25-19.167 0-36.417 53.667-51.75 105.417-105.417 159.083-157.167 9.583-11.5 7.667-17.25-5.75-23-5.75-1.917-13.417-3.833-21.083-5.75zM351 184.167c-26.833 0-51.75 0-78.583 0-26.833 1.917-34.5 13.417-21.083 38.333 23 40.25 47.917 82.417 70.917 122.667 44.083 76.667 88.167 153.333 132.25 230 9.583 17.25 21.083 36.417 30.667 53.667 11.5 19.167 28.75 19.167 40.25 0 11.5-17.25 21.083-34.5 30.667-51.75 61.333-107.333 124.583-214.667 185.917-322 5.75-13.417 15.333-24.917 21.083-38.333 9.583-17.25 3.833-30.667-15.333-30.667-32.583-1.917-67.083-1.917-101.583 0-11.5 0-11.5 5.75-3.833 15.333 13.417 15.333 26.833 24.917 49.833 23 17.25-1.917 21.083 3.833 11.5 19.167-46 80.5-92 159.083-138 239.583-17.25 28.75-32.583 57.5-49.833 86.25-1.917 3.833-3.833 9.583-9.583 9.583-5.75 0-7.667-5.75-9.583-11.5-34.5-57.5-67.083-115-101.583-174.417-28.75-49.833-57.5-99.667-86.25-151.417-3.833-3.833-9.583-7.667-5.75-13.417 3.833-5.75 9.583-3.833 15.333-3.833 42.167 0 86.25 0 130.333 0 5.75 0 17.25 1.917 21.083-5.75 3.833-9.583-5.75-13.417-9.583-19.167-9.583-11.5-21.083-15.333-34.5-15.333-24.917 1.917-49.833 0-74.75 0zM374 38.501c9.583 1.917 13.417-1.917 17.25-7.667 30.667-34.5 65.167-65.167 97.75-97.75 11.5-13.417 21.083-11.5 32.583 0 57.5 57.5 113.083 113.083 170.583 170.583 67.083 67.083 134.167 134.167 203.167 201.25 11.5 13.417 13.417 21.083 0 32.583-13.417 11.5-24.917 24.917-38.333 38.333-9.583 9.583-11.5 17.25 0 28.75 36.417 36.417 28.75 36.417 63.25 1.917 17.25-17.25 36.417-34.5 53.667-51.75 19.167-17.25 19.167-21.083 0-38.333-99.667-99.667-199.333-199.333-299-297.083-51.75-53.667-105.417-103.5-157.167-155.25-7.667-9.583-15.333-13.417-24.917-1.917-44.083 46-90.083 90.083-134.167 136.083-7.667 5.75-21.083 11.5-15.333 23 5.75 11.5 21.083 13.417 30.667 17.25zM636.583 297.251c-3.833-1.917-34.5-26.833-38.333-28.75-13.417-9.583-26.833-19.167-40.25-28.75-9.583-5.75-17.25-11.5-26.833-17.25-53.667-36.417-105.417-65.167-153.333-90.083-7.667-3.833-13.417-7.667-21.083-11.5-13.417-7.667-28.75-13.417-42.167-19.167-7.667-3.833-15.333-7.667-21.083-9.583-63.25-26.833-115-40.25-147.583-40.25-11.5 0-19.167 1.917-23 5.75 0 0-78.583-5.75 11.5 147.583-65.167-76.667-90.083-141.833-47.917-174.417 15.333-9.583 34.5-15.333 59.417-15.333 46 0 109.25 19.167 184 49.833 5.75 3.833 13.417 7.667 21.083 9.583 13.417 7.667 26.833 13.417 42.167 21.083 5.75 3.833 13.417 5.75 19.167 9.583 61.333 32.583 126.5 72.833 191.667 116.917 7.667 5.75 44.083 30.667 53.667 36.417zM851.25 427.584c5.75 3.833 11.5 9.583 17.25 15.333 11.5 9.583 23 21.083 34.5 30.667 5.75 5.75 9.583 11.5 15.333 17.25 78.583 82.417 109.25 151.417 57.5 185.917-17.25 9.583-42.167 15.333-72.833 15.333-53.667 0-93.917-11.5-180.167-44.083l30.667-26.833c76.667 28.75 111.167 32.583 149.5 32.583 15.333 0 24.917-1.917 30.667-3.833 23-15.333 3.833-63.25-59.417-130.333-3.833-5.75-9.583-11.5-15.333-17.25-9.583-9.583-21.083-21.083-34.5-32.583-3.833-5.75-11.5-9.583-17.25-15.333-17.25-15.333-74.75-76.667-95.833-93.917l23-44.083z" />
<glyph unicode="&#xe604;" d="M500.845-16.812v226.516h-486.698v489.761h113.255v-373.442h373.442v226.516l284.674-284.674z" horiz-adv-x="811" />
<glyph unicode="&#xe605;" d="M914 213.334c0 2 0 4-2 6-10 6-22 14-34 14-18 2-38 14-44 28-10 24-44 24-48 52 0 0-4 2-6 2-22 2-24 24-38 36 34 14 66 24 98 36 12 4 30 6 34 14 8 16 20 16 32 18 4 0 8 10 12 14-6 2-10 6-16 6-6 2-14 2-20 4 0 0 0 2 0 4-46-14-92-28-138-42-6-2-12-8-18-14-10-8-20-14-32-6-16 10-28 22-44 32-32 26-66 52-98 76-6 4-14 8-22 10-10 2-22 0-32 4-12 4-24 10-34 16-28 14-54 28-82 42-16 8-30 14-46 22-12 4-22 8-32-6-8 16-16 28-24 42-18 32-18 32-28 32 4-26 2-52 26-74-16 0-28 0-38 0-16-2-30-8-44-6-36 2-68-8-102-16-8 0-14-8-20-12 0-2 0-4 2-4-6-2-12-2-16-2 0-20 18-34 32-30 30 12 62 14 92 22 26 8 56 0 86-4 24-2 42-14 52-38 2-2 2-6 2-10-4 0-6-2-10-2-24 2-24 2-28-24 14-2 26-4 38-6 0-12 0-26 0-40 2 0 4 0 6-2 6 10 14 18 24 30 18-30 38-58 56-86 16-28 32-58 48-90-18 4-20-12-24-22-14-24-28-26-46-4-12 14-24 26-36 40-12 16-22 32-20 54 0 12-2 24-4 40-10-8-16-14-24-22-2-6-10-18-6-22 12-14 0-30 4-48-6 4-10 8-12 10-16 10-32 20-46 30-12 6-26 12-34 20-12 16-28 24-46 32-10 2-18 10-26 16-10 6-20 10-30 16-2-2-2-2-4-4 2-12 6-24 8-38 2 2 2 2 4 4 4-6 10-12 14-16 2-4 6-6 10-8 4-2 8-2 12-4 24-18 46-36 70-54 20-18 42-36 60-56 10-14 20-24 36-28 30-8 54-28 80-44 2-2 4-8 2-12-10-36-24-68-28-104 0-18-10-36-14-52-4-10-8-20-12-30-2-8-2-14-4-24 28 4 36 22 42 42 12 36 26 72 40 108 4 12 12 22 18 34 6 12 20 20 32 16 48-14 96-20 146-20 28 0 56 2 82 10 60 14 118 30 178 48 16 4 30 10 50 18-12 8-20 14-30 20 6 2 10 4 14 6zM360 501.334c26-2 54 2 74-24-22 16-54 0-74 24zM408 415.334c-2 4-4 8-6 10 48 0 86-24 126-42 4-2 10-4 14-4 22 4 34-10 46-22 4-6 10-14-4-18-28-12-58-24-86-34-6-2-16 0-18 4-24 36-48 70-72 106zM486 203.334c-18 4-20 10-10 26 4 6 4 14 6 20-2 2-4 2-6 4 10 4 20 10 32 12 36 4 70 16 100 40 8-10 18-18 24-28 12-20 0-46-24-58-38-20-80-20-122-16zM610 151.334c20 20 44 36 56 60s12 54 18 78c2-6 4-18 8-28 2 0 2 0 2 0 2 6 4 14 6 22 36-26 70-52 106-80-66-20-126-58-196-52zM106 417.334c60-6 120 4 180 14 0 2 0 4 0 6s-120-8-182-12c2-2 2-4 2-8zM1024 503.334c-2 2-2 4-4 8-38-12-74-32-110-50 0-2 2-4 2-6 38 16 74 32 112 48zM266 453.334c-32 0-64 0-94 0 30-10 62-12 94-6 0 2 0 4 0 6zM68 507.334c-24-8-44-18-68-26 14-10 58 8 68 26zM928 455.334c0-4 2-6 2-10 18 6 36 12 54 16 0 4-2 6-2 8-18-4-36-10-54-14zM194 749.334c-2 0-2 0-4 0 6-16 12-30 20-48 8 18 0 38-16 48zM56 511.334c0 2 0 4 0 8-12-2-22-4-32-4 0-2 0-6 0-8 10 0 22 2 32 4zM58 415.334c4-4 8-8 12-12 2 0 6 4 10 8-6 4-10 8-16 12 0 0-6-6-6-8zM360 501.334c20-24 52-8 74-24-20 26-48 22-74 24z" />
<glyph unicode="&#xe606;" d="M1036.513 730.954c32.86 0 58.682-25.821 58.682-58.682v-77.461c0-28.166-18.779-49.292-44.6-56.334 0-4.694 2.35-9.39 2.35-14.083l-28.168-579.774c-2.348-30.515-28.166-53.988-58.681-53.988h-614.986c-32.86 0-58.681 23.472-61.029 53.988l-2.347 100.934h-176.046v44.598h173.7l-4.694 46.946h-255.851v44.599h253.506l-4.694 136.142h-161.962v44.599h159.614l-7.042 161.961c0 4.694 0 9.39 0 14.083-25.821 7.043-44.599 28.167-44.599 56.334v77.461c0 32.861 25.822 58.682 58.682 58.682h112.668v4.694c0 30.514 25.821 56.334 58.683 56.334h415.464c32.861 0 58.682-25.821 58.682-56.334v-4.694h112.666zM966.095-50.687l28.164 579.775h-671.317l7.043-166.654h345.048v-44.598h-342.702l7.042-136.143h382.605v-44.599h-380.256v-46.946h333.312v-44.599h-330.965l7.042-96.238 614.988-0.001zM1036.513 594.813v77.461h-171.351v63.376h-415.465v-63.376h-171.351v-77.461h758.167z" horiz-adv-x="1131" />
<glyph unicode="&#xe607;" d="M770 431.334l-68-190-196 552-196-552-66 190-120 362h-124l182-536 128-364 196 552 196-552 128 362 194 538h-124zM510 343.334l-72-228-72-226h288l-72 226zM48 343.334l76-224 74-226 32 98-120 352zM776-10.666l32-98 76 224 76 226h-62z" />
<glyph unicode="&#xe608;" d="M553.37 620.885l213.038-189.628v-348.821l-213.038-191.967-210.695 191.967v348.82l210.695 189.628zM714.904 103.506v304.34l-161.534 145.147-154.511-142.805 154.511-147.488v-159.192l-159.193 152.168v-152.168l159.193-145.148 161.534 145.144zM747.68 656.001c-107.689 58.526-215.38 72.574-332.431 39.801-81.938-21.070-149.829-63.21-208.355-131.1l-14.046-14.047 110.031-77.255-238.792-70.232-42.138 264.54 107.69-74.916 11.705 14.047c65.551 79.597 149.829 135.78 255.176 163.875 135.781 37.458 266.882 21.071 386.277-49.163 119.396-65.551 196.649-163.875 236.45-292.635l-74.915-18.728c-32.774 107.689-98.326 187.287-196.649 245.812v0z" horiz-adv-x="1045" />
<glyph unicode="&#xe609;" d="M567.103 378.072v-0.001l0.001-0.001zM512 811.557c-258.99 0-470.223-211.233-470.223-470.223s211.233-468.385 470.223-468.385 468.385 209.396 468.385 468.385-209.396 470.223-468.385 470.223zM512-93.989c-75.309 0-146.944 18.368-209.396 53.267-25.715 3.673-53.267 9.184-77.147 22.041-9.184 3.673-20.205 9.184-18.368 20.205 0 7.463 2.426 12.5 7.277 16.097-4.85-3.597-7.276-8.634-7.276-16.096-1.837-11.021 9.184-16.531 18.368-20.205 23.878-12.858 51.431-18.368 77.145-22.041 7.349-1.837 12.858-1.837 18.368-3.673 36.736-3.673 73.473-7.347 110.208-11.021l-0.002-0.001c27.552 0 55.104 0 82.655 0 34.899 3.673 69.798 7.347 106.535 11.021 34.899 3.673 69.798 9.184 101.025 27.552 20.205 11.021 20.205 25.715 0 36.736-7.347 5.51-14.694 7.347-22.043 11.021-58.778 18.368-119.392 23.878-180.007 25.715-16.531 0-23.88 11.021-14.694 25.715 14.694 22.043 29.387 47.758 47.758 67.962 42.246 45.92 25.715 45.92 86.33 25.715 14.694-5.51 29.387-9.184 42.246 1.837 11.021 9.184 22.041 23.88 38.573 11.021 3.673-1.837 5.51 1.837 9.184 1.837 5.51 3.673 14.694 5.51 16.531 9.184 9.184 9.184 31.225 7.347 27.552 29.387-1.837 3.673 5.51 7.347 9.184 7.347 11.021 0 22.041 1.837 29.387-9.184 3.673-3.673 7.347-9.184 14.694-5.51 1.837 7.347-9.184 11.021-3.673 18.368 7.347 11.021-1.837 9.184-7.347 9.184-14.694 0-29.39-5.51-45.92-7.347-9.184-1.837-22.043 5.51-22.043-14.694 0-3.673-7.347-7.347-14.694-9.184-38.573-9.184-77.147-16.531-117.557-16.531-9.184 0-14.694 3.673-18.368 11.021 11.021 7.347 22.041 7.347 33.064 9.184 20.205 0 38.573 7.347 47.758 27.552 3.673 5.51 9.184 11.021 16.531 9.184 27.552-1.837 55.104 3.673 82.655 7.347 23.88 3.673 44.083 22.043 67.962 29.387 0 0 1.837 3.673 1.837 5.51 3.673 22.043 22.043 18.368 34.899 20.205 7.347 1.837 11.021 1.837 11.021 9.184 0 5.51 5.51 14.694-7.347 14.694-11.021 1.837-20.205 3.673-23.88 16.531-1.837 9.184-9.184 16.531-14.694 25.715-9.184-11.021-23.88 1.837-31.225-5.51-16.531-16.531-36.736-29.387-36.736-55.104 0-3.673-5.51-3.673-1.837-7.347 12.858-25.715 5.51-29.387-16.531-36.736-33.064-9.184-67.962-1.837-102.861-5.51-5.51 0-11.021-1.837-14.694 1.837 1.837 7.347 5.51 12.858 9.184 18.368 5.51 9.184 16.531 16.531 27.552 12.858 16.531-5.51 31.225-1.837 45.92 1.837 27.552 9.184 40.41 44.083 23.88 66.125-3.673 1.837-5.51 3.673-1.837 7.349 3.673 3.673 5.51 5.51 9.184 1.837 3.673-5.51 9.184-5.51 11.021 0 3.673 12.858 16.531 14.694 27.552 22.043 5.51 1.837 11.021 9.184 5.51 12.858-12.858 5.51-11.021 18.368-22.041 25.715-9.184 5.51-1.837 14.694 1.837 22.043 0 1.837 1.837 9.184 3.673 5.51 16.531-11.021 33.064 1.837 49.594-1.837 5.51 0 12.858-1.837 12.858 5.51 1.837 5.51-7.347 5.51-11.021 7.349-11.021 7.347-18.368 11.021-5.51 23.878 18.368 18.368 16.531 22.041-3.673 44.083-11.021-12.858-14.694-14.694-14.694-7.349-3.673 14.694-18.368 16.531-27.552 25.715-1.837 1.837-5.51 1.837-11.021-1.837-16.531-11.021-25.715-7.347-34.899 11.021-3.673 7.349-7.347 9.184-12.858 3.673-11.021-9.184-16.531-23.878-33.064-16.531-1.837 0-3.673-1.837-3.673-3.673 1.837-9.184-12.858-16.531-3.673-29.387 1.837-1.837 3.673-12.858-5.51-16.531-7.347-1.837-9.184 3.673-12.858 7.349-5.51 5.51-7.347 11.021 1.837 16.531 7.347 5.51 11.021 14.694 7.347 23.88-1.837 5.51 0 7.347 5.51 7.347 18.368 1.837 31.225 12.858 34.899 29.387 1.837 7.349 5.51 11.021 11.021 9.184 12.858-7.349 27.552-1.837 40.41-12.858 9.184-7.349 23.88-5.51 36.736-7.349 11.021-1.837 27.552 16.531 22.043 22.041-14.694 11.021-23.88 27.552-44.083 33.064-11.021 3.673-22.043 9.184-25.715 22.043-3.673 7.349-7.347 11.021-14.694 11.021-9.184 0-18.368 5.51-27.552 9.184-11.021 7.347-22.043 7.347-33.064 1.837-11.021-3.673-18.368-3.673-29.387 1.837-9.184 5.51-18.368 5.51-29.387 1.837s-20.205-16.531-31.225-14.694c-9.184 3.673-18.368 3.673-27.552 3.673-20.205 0-42.246-3.673-60.615 1.837-16.531 3.673-22.043 0-29.387-9.184-11.021-9.184-14.694-22.041-23.88-31.225-5.51-9.184-14.694-14.694-25.715-9.184-20.205 12.858-40.41 27.552-67.962 16.531-1.837-1.837-3.673-1.837-5.51 0-18.368 1.837-36.736 0-56.941-7.349-12.858-5.51-16.531-12.858-16.531-22.041-1.837-9.184-5.51-7.349-9.184-7.349-22.041 3.673-42.246-1.837-64.288-3.673-9.184-1.837-23.878-9.184-20.205-18.368 1.837-12.858 3.673-23.88 5.51-36.736 3.673-12.858 14.694-27.552-3.673-38.573-3.673-1.837-3.673-3.673-1.837-7.347 3.673-3.673-1.837-14.694 3.673-14.694 7.349-1.837 18.368-7.349 25.715-3.673 12.858 5.51 27.552 0 40.41 5.51 3.673 1.837 9.184 7.347 14.694 1.837 12.858-12.858 33.062-12.858 44.083-29.387 0-1.837 3.673 0 5.51 0 34.899 1.837 69.798 0 95.514-27.552 12.858-14.694 27.552-20.205 45.92-23.88 20.205-5.51 40.41-9.184 58.778-23.878 3.673-1.837 9.184-7.349 7.347-12.858-3.673-5.51-9.184 0-12.858 0-29.387 7.349-56.941 7.349-82.655-7.349-5.51-3.673-11.021-5.51-16.531-5.51-22.043-3.673-34.901 14.694-25.715 33.064 3.673 7.349 0 11.021-1.837 14.694-7.349 7.349-12.858 14.694-22.041 22.041-11.021 9.184-27.552 5.51-27.552-7.349s-3.673-23.88-18.368-27.552c-5.51-1.837-5.51-5.51 1.837-11.021 7.347-7.349 25.715 3.673 23.878-14.694 0 0 1.837-1.837 3.673 0 16.531 9.184 23.88-5.51 33.062-14.694 18.368-16.531 25.715-16.531 45.92-5.51 5.51 1.837 11.021 5.51 16.531 9.184 12.858 7.349 23.878 3.673 33.062-5.51 7.349-5.51 14.694-12.858 20.205-20.205 7.349-12.858 18.368-20.205 33.062-22.041 29.387-3.673 42.246-18.368 44.083-49.594 1.837-16.531-9.184-25.715-14.694-36.736-7.347-14.694-20.205-20.205-36.736-16.531-27.552 3.673-49.594 20.205-71.635 38.573-7.349 7.347-9.184 12.858-3.673 22.043 5.51 12.858 7.349 23.88-5.51 33.064-11.021-9.184 1.837-20.205-3.673-31.225-7.349 5.51-12.858 9.184-18.368 12.858-16.531 9.184-34.899 16.531-33.064 40.41 1.837 5.51-5.51 11.021-11.021 7.349-12.858-5.51-23.878 1.837-36.736 3.673-12.858 5.51-20.205 0-20.205-12.858 0-7.347-1.837-12.858-7.349-18.368-11.021-7.347 1.837-14.694 1.837-22.041 1.837-5.51 9.184-1.837 14.694 0 16.531 9.184 40.41 5.51 53.267-7.347 3.673-3.673 7.349-7.347 3.673-12.858-5.51-5.51-9.184-11.021 3.673-12.858 7.349 0 1.837-14.694 12.858-11.021 27.552 7.347 42.246-11.021 55.104-29.387 7.349-11.021 12.858-20.205 22.043-27.552 27.552-16.531 25.715-29.39 0-47.758-25.715-18.368-47.758-44.083-56.941-77.145-1.837-7.347-5.51-9.184-12.858-11.021-27.552 0-55.104-1.837-82.657-7.347-34.899-3.673-67.962-9.184-99.188-23.88-1.837-1.837-5.51-3.673-7.347-3.673-0.16-0.080-0.309-0.166-0.465-0.247 0.155 0.081 0.304 0.168 0.464 0.247-88.167 78.982-143.27 194.702-143.27 321.441 0 240.621 196.537 437.16 437.16 437.16 240.621 0 435.323-196.537 435.323-437.16 0-240.621-194.702-435.323-435.323-435.323zM478.938 214.594c14.694-1.837 25.715-1.837 33.062-20.205-12.858 5.51-22.043 9.184-33.062 20.205zM576.288 539.709c-7.347 1.837-14.694 11.021-9.184 16.531 11.021 11.021 16.531 25.715 22.041 40.41 1.837 1.837 3.673 5.51 9.184 3.673 1.837-7.349 3.673-16.531 7.347-25.715 7.347-9.184-18.368-36.736-29.387-34.901zM625.881 572.77v0c12.859-18.367 12.859-44.082 0.001-56.939-5.51-5.51-11.021-11.021-18.368-14.694-7.347-5.51-16.531-14.694-23.88-1.837-9.184 11.021-1.837 25.715 9.184 31.225 18.368 9.184 29.387 20.205 33.064 42.246zM567.104 427.664c3.673 7.349 7.347 16.531 9.184 23.878 5.51 16.531 11.021 18.368 23.88 7.349 3.673-3.673 5.51-7.349 11.021-14.694 1.837 23.878 5.51 25.715 22.041 18.368 9.184-3.673 16.531-1.837 25.715-1.837-1.837 1.837-1.837 3.673-1.837 3.673-7.347 3.673-20.205 1.837-16.531 12.858 1.837 11.021 9.184 20.205 20.205 22.043 7.347 1.837 9.184-1.837 12.858-5.51 7.347-7.347-1.837-7.347-3.673-9.184-3.673-1.837-3.673-3.673 0-9.184 5.51-12.858-3.673-29.387-20.205-25.715-16.531 1.837-31.225 0-44.083-11.021 1.837-7.349 12.858 0 16.531-9.184-5.51-5.51-11.021-12.858-22.043-12.858-3.673 0-7.347-1.837-7.347-5.51s1.837-3.673 5.51-5.51c7.347-1.837 3.673-7.349 3.673-11.021-1.837-7.349-3.673-14.694-5.51-20.205-3.673-14.694 3.673-23.88 18.368-29.387 7.347-3.673 12.858-12.858 16.531-20.205 1.837-7.347-5.51-7.347-11.021-11.021-9.184-3.673-12.858 1.837-18.368 9.184-11.021 18.368-25.714 34.899-34.899 55.103-9.183 16.53-9.183 33.062 0.001 49.593zM660.782 255.004v0c-9.185-16.531-23.88-16.531-36.737-16.531-3.673 0-7.347 1.837-9.184 5.51 0 3.673 3.673 7.347 7.347 9.184 11.021 5.51 23.88 3.673 38.573 1.837zM543.225 486.441c-5.51 0-12.858-1.837-20.205-3.673-9.184-1.837-18.368-5.51-20.205-16.531 0-11.021-7.349-12.858-16.531-9.184s-22.041 7.349-33.064 9.184c-12.858 0-18.368 5.51-14.694 16.531 1.837 12.858-1.837 20.205-9.184 27.552-7.349 5.51-9.184 12.858-12.858 22.043-1.837 11.021-3.673 20.205 9.184 27.552 12.858 9.184 20.205-3.673 23.878-11.021 5.51-7.349 9.184-18.368 18.368-18.368 11.021 0 23.88 3.673 34.901 9.184 9.184 5.51 14.694 3.673 20.205-3.673 5.51-9.184 14.694-16.531 25.715-22.041 5.51-1.837 9.184-7.349 7.347-14.694h-0.001c0-7.347-5.51-11.021-12.858-12.858zM543.226 335.824c-23.878 0-34.899 16.531-45.92 34.901 20.205-7.349 33.062-20.205 45.92-34.901zM504.651 420.317c0-3.673-3.673-3.673-5.51-1.837-25.715 11.021-56.941 12.858-78.984 38.573 31.225 0 55.104-14.694 78.984-27.552 3.673-1.837 7.349-5.51 5.51-9.184zM521.184 558.078c7.347 5.51 12.858 11.021 14.694 22.043h0.001c9.184-7.349 9.184-14.694 3.673-22.043-3.673-5.51-11.021-7.349-18.368 0zM214.854 17.957c0.223 0.155 0.441 0.316 0.675 0.467-0.234-0.149-0.452-0.31-0.675-0.467zM216.533 19.034c0.082 0.049 0.159 0.1 0.242 0.148-0.083-0.047-0.16-0.099-0.242-0.148z" />
<glyph unicode="&#xe60a;" d="M1295.508 749.625h73.849v-829.37h-357.882v22.722h-45.445v-93.729h-729.961l-19.883 22.723-187.462 187.461v772.568h937.305v-105.090h45.445v22.723l284.034-0.008zM1295.508 559.323v116.454h-210.186v-22.723h-193.14v102.252h-789.607v-664.636l164.737-164.737h624.87v90.891h193.14v-22.722h210.185v116.452h-210.185v-22.723h-193.14v116.453h193.14v-22.723h210.185v116.454h-210.185v-22.723h-193.14v116.453h193.14v-19.884h210.185v116.453h-210.185v-25.563h-193.14v116.453h193.14v-19.884l210.186 0.004zM375.245 565.003v-59.646h93.73v-352.201h90.891v437.408l-184.621-25.562z" horiz-adv-x="1408" />
<glyph unicode="&#xe60b;" d="M934 463.334l-36-118-80 118h-70l-70-230h88l36 116 78-116h72l68 230zM254 463.334l-36-118-78 118h-70l-70-230h88l36 116 78-116h70l70 230zM160 181.334h-40c50-144 170-252 316-282v40c-126 28-228 120-276 242zM906 181.334h-40c-48-122-150-214-274-242v-40c144 30 264 138 314 282zM512 745.334c160 0 296-104 354-250h40c-60 170-212 290-394 290-180 0-332-120-392-290h40c56 146 194 250 352 250zM202 495.334h44c46 92 134 156 236 166v42c-124-12-228-94-280-208zM780 495.334h44c-52 114-156 196-280 208v-42c102-10 190-74 236-166zM246 181.334h-44c44-98 130-174 234-198v42c-82 22-150 80-190 156zM824 181.334h-44c-40-76-106-134-188-156v-42c102 26 188 100 232 198zM730 181.334h-48c-24-28-56-52-90-66v-42c56 18 106 58 138 108zM344 181.334h-48c32-52 82-90 140-110v44c-36 14-68 38-92 66zM482 573.334v42c-78-10-144-54-186-120h48c36 42 84 70 138 78zM544 615.334v-42c54-8 102-36 138-78h48c-42 66-110 110-186 120zM654 357.334c0 0-2 0-2 0 4 4 6 6 10 8 14 16 22 36 22 60 0 10-2 20-6 30-4 8-10 18-16 24-8 8-16 14-24 18-10 6-20 8-32 12-8 2-16 2-24 2-6 2-14 2-24 2h-162l-70-316h166c12 0 24 2 32 2 4 0 6 0 10 0 16 2 26 2 34 4 16 2 30 8 44 14 12 6 24 14 32 22 10 10 18 20 22 32 6 12 8 24 8 36 0 10-2 18-6 28-4 8-8 16-14 22zM454 447.334h104c6 0 12 0 16 0 4-2 6-2 10-2v0c8-2 14-6 16-8 4-4 6-8 6-14 0-6-2-12-4-16-2-4-6-8-10-12-6-4-12-6-18-8-8 0-16-2-24-2h-110zM432 331.334h124c10 0 18 0 22-2 8-2 12-4 16-8 2-4 4-8 4-14 0-4 0-8-2-12-2-4-4-8-8-10-2-4-8-8-12-10-6-4-14-6-24-8-2 0-16-2-22-2-4 0-6 0-8 0-6-2-14-2-24-2h-82z" />
<glyph unicode="&#xe60c;" d="M648.004 229.765v65.337l79.541-22.726v-34.089c0-34.088-5.682-56.814-19.885-68.178-14.203-11.362-39.77-17.044-79.541-17.044h-366.453v39.77c0 14.203 2.841 28.408 8.522 36.929 8.522 14.203 22.726 25.567 45.452 42.611l303.957 184.647v56.815h-249.984v-88.062l-85.222 19.885v56.815c0 34.089 5.681 56.815 19.885 68.178s39.771 17.044 79.541 17.044h224.418c36.929 0 62.496-5.681 79.54-17.044 11.363-11.363 19.885-34.089 19.885-68.178v-25.567c0-25.566-2.841-42.61-11.362-56.815-8.523-8.522-22.726-19.885-45.452-34.089l-255.667-156.24h252.825zM1295.69 749.618h73.859v-829.493h-357.932v19.884h-42.611v-90.903h-732.907l-19.885 22.726-187.488 187.488v772.678h940.281v-105.107h42.611v22.726h284.073zM1295.69 559.29v113.629h-210.214v-22.726h-193.169v105.107h-789.723v-664.731l164.762-164.762h624.961v90.904h193.169v-22.727h210.214v116.471h-210.214v-22.726h-193.169v116.47h193.169v-19.885h210.214v113.63h-210.214v-22.726h-193.169v116.47h193.169v-19.885h210.214v113.63h-210.214v-22.726h-193.169v116.47h193.169v-19.885h210.214z" horiz-adv-x="1408" />
<glyph unicode="&#xe60d;" d="M472.264 476.966l146.18 52.065v238.295l-146.18-52.064v-238.296zM195.921 208.634v506.629l-90.112 50.061v-588.73l90.112 32.040zM215.945 711.256h236.293v-500.621h-236.293v500.621zM460.249 731.281l144.178 52.064-82.102 48.060h-260.323l-142.176-52.064 88.109-48.059h252.314zM582.401 392.862h236.291v-488.606h-236.291v488.606zM628.457 513.011l-136.168-50.062h-8.010l90.112-50.061h252.312l146.182 52.065-82.102 48.059h-262.326zM838.718 394.864v-486.603l148.184 52.063v488.607l-148.184-54.067zM562.376 396.867l-90.112 48.059v-238.295l90.112-52.065v242.301zM462.251 462.947v0 0zM133.844 74.466l-90.112 50.061v-218.27l90.112-50.062v218.271zM153.868 70.462h236.293v-220.274h-236.293v220.274zM556.368-93.742v220.273l-146.181-52.065v-220.274l146.181 52.066zM145.858 90.485h252.313l144.179 52.065-80.1 48.058h-262.325l-142.175-52.063 88.108-48.060z" />
<glyph unicode="&#xe60e;" d="M713.256 354.816c-17.042 14.202-42.606 22.723-76.69 25.564 31.245 5.681 51.127 14.202 65.329 25.564 11.361 11.361 17.042 31.245 17.042 56.807v39.766c0 17.042 0 31.245-2.841 42.606-5.681 11.361-11.361 19.883-17.042 25.564-8.522 8.522-19.883 11.361-31.244 14.202-14.202 2.841-28.404 2.841-48.287 2.841h-235.752c-17.042 0-34.084 0-45.446-2.841-14.202-2.841-22.723-5.681-31.245-14.202-8.522-5.681-14.202-14.202-17.042-25.564s-5.681-25.564-5.681-42.606v-25.564l85.211-17.043v53.968h215.869c17.042 0 28.404-2.84 34.084-8.522s8.522-14.202 8.522-31.245v-22.723c0-14.202-2.841-25.564-8.522-31.245s-17.042-8.522-34.084-8.522h-130.657v-71.010h147.699c17.042 0 28.404-2.841 34.084-8.522 5.681-2.841 8.522-14.202 8.522-31.245v-31.245c0-17.042-2.841-25.564-8.522-31.245s-17.042-8.522-34.084-8.522h-235.751v62.488l-88.052-19.883v-34.084c0-17.042 0-31.245 2.841-42.606 5.681-11.361 11.361-19.883 17.042-28.404 8.522-5.681 19.883-8.522 31.245-11.361 14.202-2.841 28.404-2.841 48.287-2.841h252.794c19.884 0 39.766 0 51.127 2.841 14.202 5.681 25.563 11.361 34.084 17.042 8.522 8.522 14.202 17.042 17.042 28.404 2.841 14.202 2.841 28.404 2.841 45.446v45.446c-0.001 25.566-8.522 48.289-22.724 62.491zM1295.534 749.629h-284.038v-22.723h-42.606v105.094h-940.165v-772.583l207.348-210.187h732.817v90.892h42.606v-19.883h357.888v829.391h-73.849zM1295.534 559.323h-210.188v19.883h-193.145v-116.456h193.145v22.723h210.188v-113.615h-210.188v19.883h-193.145v-116.456h193.145v22.723h210.188v-113.615h-210.188v19.883h-193.145v-116.457h193.145v22.724h210.188v-116.457h-210.188v22.723h-193.145v-90.892h-624.883l-164.742 164.744v664.648h789.625v-105.095h193.145v22.723h210.188v-113.615z" horiz-adv-x="1408" />
<glyph unicode="&#xe60f;" d="M623.167 605.834h-218.5l-153.333-153.333v-218.5l153.333-153.333h218.5l153.333 153.333v218.5zM209.167 74.917v141.833l-59.417 57.5-42.167 42.167h-80.5l122.667-124.583v-174.417zM820.583 611.584v-141.833l99.667-99.667h82.417l-124.583 124.583v174.417zM722.833 38.501h-82.417l-57.5-59.417-44.083-42.167 1.917-82.417 124.583 124.583h174.417l-59.417 59.417zM305 648.001h82.417l99.667 99.667v82.417l-122.667-122.667h-178.25l59.417-59.417zM149.75 412.251l59.417 57.5v139.917l-59.417 57.5v-172.5l-122.667-124.583h82.417zM920.25 316.417l-99.667-99.667v-143.75l57.5-57.5v176.333l124.583 124.583zM418.083 111.334l-136.083 136.083v191.667l136.083 136.083h191.667l136.083-136.083v-191.667l-136.083-136.083zM598.25 38.501l30.667 28.75h128.417l-44.083 44.083h-40.25l72.833 72.833v-38.333l1.917-1.917 42.167-40.25v124.583l88.167 88.167v1.917h-61.333l-26.833-26.833v103.5l28.75-28.75h63.25l-92 92v124.583l-44.083-44.083v-36.417l-72.833 72.833h42.167l40.25 42.167 1.917 1.917h-128.417l-90.083 90.083v-63.25l26.833-26.833h-103.5l28.75 28.75v61.333l-3.833-1.917-57.5-59.417-28.75-28.75h-126.5l44.083-44.083h38.333l-74.75-72.833v40.25l-42.167 40.25-1.917 1.917v-126.5l-28.75-30.667-59.417-57.5-1.917-3.833h61.333l28.75 28.75v-103.5l-24.917 26.833h-63.25l88.167-90.083v-128.417l44.083 44.083v40.25l74.75-72.833h-38.333l-1.917-1.917-40.25-42.167h124.583l28.75-28.75 57.5-59.417 3.833-1.917v61.333l-28.75 28.75h103.5l-26.833-26.833v-63.25l1.917 1.917zM387.417 38.501h-141.833l-57.5-59.417h176.333l122.667-122.667v82.417l-40.25 40.25zM640.417 648.001h141.833l57.5 59.417h-174.417l-124.583 124.583v-82.417l42.167-42.167z" />
<glyph unicode="&#xe610;" d="M1295.508 749.625h73.849v-829.37h-357.882v22.722h-45.445v-93.729h-729.961l-19.883 22.723-187.462 187.461v772.568h937.305v-105.090h45.445v22.723l284.034-0.008zM1295.508 559.323v116.454h-210.186v-22.723h-193.14v102.252h-789.607v-664.636l164.737-164.737h624.87v90.891h193.14v-22.722h210.185v116.452h-210.185v-22.723h-193.14v116.453h193.14v-22.723h210.185v116.454h-210.185v-22.723h-193.14v116.453h193.14v-19.884h210.185v116.453h-210.185v-25.563h-193.14v116.453h193.14v-19.884l210.186 0.004z" horiz-adv-x="1408" />
<glyph unicode="&#xe611;" d="M651.134 795.851c258.535-2.423 414.633-213.14 343.902-472.3-70.734-259.16-341.464-472.299-602.438-472.299-85.365 0-158.535 21.798-217.073 60.55l-36.583-38.753 31.706 43.596c-119.512 79.927-173.171 232.517-126.829 406.903 70.732 259.159 339.023 469.879 597.559 472.301l14.635 36.329-4.879-36.328zM621.866 631.151l-31.706-188.92c46.34-16.956 70.732-62.973 56.097-118.681-19.512-67.818-90.242-125.946-160.975-125.946-9.757 0-21.953 2.423-31.706 4.843-2.44 2.423-4.878 2.423-7.316 2.423l-143.902-155.010c36.585-21.799 82.927-33.908 134.148-33.908 170.733 0 346.341 138.058 392.683 307.599 43.902 162.277-46.34 297.913-207.317 307.601l-0.004-0.001zM512.11 442.231l68.294 188.92c-163.415-9.689-326.829-145.323-370.731-307.601-29.268-108.991 0-203.451 73.171-259.158l124.392 169.544-4.878 9.689c-12.195 21.798-17.074 48.441-9.757 79.926 14.635 55.707 63.415 101.727 119.512 118.681l-0.002-0.001zM543.817 418.011c-51.219 0-104.878-41.176-119.512-94.461-14.635-50.862 17.074-94.46 68.293-94.46 53.657 0 107.316 43.596 121.952 94.46 14.634 53.286-17.075 94.461-70.733 94.461v0zM102.353 323.549c-41.465-150.166 4.878-280.958 107.316-353.62l46.341 58.128c-82.927 62.974-119.512 171.966-85.365 295.491 48.781 186.499 239.025 339.087 424.389 348.775l26.829 65.397c-226.829-4.843-458.536-188.919-519.511-414.172v0.002zM407.231-90.619c229.268 0 465.853 186.497 529.268 414.171 58.536 225.251-73.171 409.327-295.122 414.172l-12.195-65.396c182.927-9.688 290.244-162.277 239.024-348.776-51.218-191.341-251.22-346.352-441.463-346.352-60.974 0-112.194 14.532-153.656 41.176l-51.218-55.707c51.218-33.908 114.634-53.285 185.366-53.285l-0.004-0.002zM504.792 267.843c-31.706 0-48.781 26.645-41.465 55.707 7.316 31.486 39.025 55.707 70.733 55.707 31.705 0 48.78-24.221 41.464-55.707-9.757-29.063-41.464-55.707-70.732-55.707v0z" horiz-adv-x="1045" />
<glyph unicode="&#xe612;" d="M471.562 561.692c0 59.375 0 116.834 0 176.21 0 13.407-1.916 26.814 11.492 34.476 5.746 3.83 5.746 9.577 3.83 13.407-1.916 11.491 0 19.153 5.746 28.73 17.238 22.984 26.813 22.984 44.052 1.915 3.829-5.746 7.661-9.577 13.407-7.661 19.151 5.746 15.322-5.746 15.322-17.238 1.915-9.577-19.153-21.068 1.915-30.646 11.492-3.83 21.068-3.83 34.476 1.916 11.492 3.831 30.647-11.492 32.561-28.73 1.915-19.153 17.237-24.898 26.814-36.391 5.746-7.661 11.492-1.916 17.237 3.831 9.578 13.407 19.153 5.746 28.731-1.916 11.49-7.661 7.661-17.238 1.915-26.814-5.746-5.746-9.578-13.407-11.492-21.069 0-7.661 1.915-15.322 11.492-9.577 13.407 7.661 17.237 1.916 19.153-11.492 3.829-17.238 19.151-21.068 30.645-7.661 15.322 13.407 28.73 26.814 24.899 51.714-1.915 7.661 5.746 11.491 13.407 11.491 5.746 0 11.49 1.916 17.237 1.916 1.917 0 5.746 1.916 5.746 5.746s-5.746 5.746-7.661 3.83c-19.153-7.661-21.068 5.746-22.983 19.153 0 17.238 13.407 15.323 24.898 17.238 3.831 0 7.661 0 11.492 0 7.661 1.916 19.153 5.746 24.899-5.746 5.744-9.577 1.915-17.238-3.831-26.814-7.661-7.662 0-11.492 7.661-13.407 3.831-1.916 11.492 0 11.492-5.746 1.915-7.661-3.831-9.577-9.578-13.407-15.322-7.661-32.559-13.407-49.798-15.322-1.915-1.916-13.407 0-3.83-9.577 5.744-3.83-3.831-5.746-9.578-7.661-5.746-1.916-11.49-1.916-11.49-7.662 0-9.577 3.83-17.238 11.49-22.984 5.746-3.831 9.578 1.916 15.322 5.746 3.831 1.916 7.663 3.83 13.407 5.746 11.492 3.83 26.814 11.492 32.561-1.916s9.578-30.646-1.915-44.052c-13.407-15.323-13.407-30.646-1.915-45.967 11.49-15.323 17.237-30.646-5.746-44.053-5.746-1.916-5.746-9.577-3.831-15.323 0-7.661 1.915-13.407 1.915-21.068 1.917-24.899 1.917-26.814-22.983-26.814-17.237 0-21.068-5.746-21.068-22.984 0-22.984 11.492-34.476 32.561-36.392 13.407-1.916 26.814-5.746 38.306-7.661 17.239-5.746 22.985-13.407 15.324-30.645-7.663-19.153-17.238-40.222-32.561-55.544-38.307-40.222-59.375-90.020-86.191-137.902-13.407-21.069-24.898-44.053-32.559-67.036-1.917-11.491-5.746-21.068-3.831-32.561 1.915-22.983-9.576-40.221-24.899-53.628-70.866-63.206-147.479-111.089-243.244-122.58-36.391-5.746-68.951 5.746-101.511 21.068-49.798 21.068-95.766 45.968-137.902 80.443-26.814 24.898-47.883 49.798-49.799 91.935-1.916 40.222-13.407 59.375-51.714 63.206-3.83 0-7.661 1.916-9.577 3.83-11.492 13.407-22.984 17.238-40.222 15.323-5.746-1.916-9.577 1.915-9.577 9.576 1.916 17.238-3.831 30.646-21.069 38.307-5.746 1.915-13.407 3.83-13.407 11.491 0 9.577 7.662 11.491 15.323 13.407 3.831 1.915 7.662 1.915 11.492 3.83 21.068 5.746 26.814 26.814 13.407 42.137-19.153 22.984-36.391 45.968-45.967 72.782-7.661 21.069-1.916 30.646 19.153 32.56 17.238 1.916 34.476 1.916 51.714 1.916 7.662 0 13.407-5.746 17.238-13.406 26.814-57.46 74.697-86.191 137.902-86.191 59.375 0 105.343 28.73 132.157 84.274 5.746 11.491 11.492 15.322 22.984 15.322 15.323 0 30.646 0 45.967 0 17.238 0 22.984 5.746 22.984 22.984-1.913 61.29 0.002 124.495 0.002 185.785zM461.985-51.208c0-15.323 0-28.73 0-44.053 1.916-21.068 3.83-22.984 22.984-19.153 72.782 21.068 137.901 57.46 193.445 109.173 11.492 11.491 21.068 24.898 19.153 45.967 0 17.238 5.746 32.561 13.407 49.799 9.578 26.814 24.899 51.714 38.307 76.612 1.915 3.83 3.83 7.662 1.915 9.577-1.915 5.746-7.661 3.83-11.492 1.916-17.237-3.83-36.391-1.916-53.627-3.83-30.647 0-36.393-7.662-24.899-36.392 5.746-17.238 7.661-32.561-1.915-47.883-9.578-13.407-11.492-34.476-36.393-28.73-1.915 0-5.746-3.831-7.661-5.746-9.576-13.407-19.153-19.153-34.476-22.984s-28.73-7.661-40.222 5.746c-1.915 0-3.829 1.915-7.661 1.915-22.983-5.745-44.051-13.407-63.204-26.813-11.492-9.577-5.746-24.899-7.662-38.307 0.001-7.661 0.001-17.238 0.001-26.813zM655.431 287.803c5.746 0 11.492 0 17.239 0 70.866 3.83 114.918 80.443 84.274 143.648-7.661 13.407-15.322 19.153-32.561 13.407-53.629-21.069-109.173-40.222-162.803-59.375-17.237-5.746-21.068-15.323-15.322-30.646 17.239-44.052 57.461-68.95 109.173-67.034zM521.359 220.766c3.831 36.392-32.558 86.19-55.543 105.343-11.491 11.491-24.898 9.577-36.391 0-15.323-15.323-26.814-34.476-38.307-53.629-11.492-17.238-15.323-36.392-15.323-57.46-1.916-13.407 1.916-19.152 17.238-13.407 11.492 5.746 21.068 13.407 32.56 21.068 17.238 15.323 28.73 15.323 45.967 0 9.577-5.745 17.238-13.406 26.814-17.238 21.069-11.491 22.984-9.576 22.984 15.323zM373.881 4.336c3.83-11.492-5.746-26.814 9.577-36.392 13.407-9.577 30.646-15.322 45.967-19.152 5.746-1.916 11.492-1.916 13.407 5.745 11.492 28.73-1.916 61.29-28.73 76.613-38.306 19.152-40.221 19.152-40.221-26.814zM301.098 54.133c0-26.814-3.83-47.883 24.899-59.375 32.56-13.407 32.56-15.322 32.56 21.068 0 22.984 1.916 45.968-26.814 53.629-9.577 3.83-19.153 21.068-26.814 15.322-9.577-7.66-1.916-22.982-3.831-30.645zM373.881-78.023c-1.916-15.323 5.746-24.899 21.068-28.73 7.662-1.915 13.407-3.83 19.153-5.745 26.814-5.746 34.476 0 28.73 26.813 0 9.577-5.746 13.407-13.407 17.238-9.577 1.915-21.068 5.745-30.646 9.576-22.983 9.578-24.898 7.663-24.898-19.152zM157.45 178.63c13.407-17.238 13.407-34.476 21.069-49.799 5.746-13.407 17.238-13.407 28.73-13.407 7.661 0 15.323 1.916 15.323 11.492 1.916 11.491 1.916 24.898 0 38.307 0 5.745-3.831 9.577-9.577 9.577-17.239 1.915-34.476 1.915-55.545 3.83zM211.079 98.186c-3.83-1.915-13.407 1.916-13.407-7.661 0-11.491 1.916-24.898 17.238-26.814 24.899-1.915 42.137-13.407 55.544-34.476 3.831-5.746 9.577-5.746 11.492 3.83 0 7.661 1.916 15.323-1.916 21.068-17.238 24.9-34.476 47.883-68.951 44.053zM281.946 84.779c0 26.814 1.916 47.883-1.916 70.867-1.916 13.407-26.814 22.984-36.391 15.322-7.662-7.661-5.746-53.628 3.83-59.375 11.493-5.746 21.069-13.407 34.476-26.814zM301.098-39.717c0-7.661-1.916-19.153 5.746-22.984 13.407-9.577 26.814-15.322 38.306-21.068 9.577-5.746 11.492 0 13.407 7.661 3.83 28.73 0 34.476-32.56 51.714-24.899 11.491-24.899 11.491-24.899-15.323zM239.81 4.336c-5.746-21.068 13.407-30.646 28.73-42.138 9.577-9.576 11.492-3.83 13.407 7.662 5.746 26.814-15.323 36.391-28.73 51.714-1.916 3.83-3.83 9.577-9.577 7.661-3.83-1.916-3.83-7.661-3.83-11.491s0-7.662 0-13.407zM425.594 607.661c0-53.629 0-107.258 0-162.802 0-24.899-3.83-24.899-26.814-26.814-49.798-5.746-93.851 11.492-139.818 28.73-30.646 11.492-63.206 22.984-95.766 36.391-13.407 3.83-22.984 0-30.646-9.577-9.577-13.407-19.153-24.898-22.984-40.221-7.662-21.068-26.814-15.323-42.137-13.407-15.323 0-11.492 13.407-11.492 24.899 0 40.221 9.577 78.528 22.984 116.834 1.916 7.661 0 13.407-1.916 21.068-1.916 11.492-5.746 22.984 11.491 26.814 9.577 0 3.83 7.661 1.916 11.491-1.916 11.492-1.916 19.153 13.407 17.238 9.577-1.916 13.407 3.83 19.153 9.577 26.814 34.476 59.375 63.206 91.936 93.851 3.83 3.83 5.746 9.577 9.577 15.323 13.407 24.898 36.391 32.56 59.375 17.238 7.662-5.746 15.323-1.916 22.984 0 28.73 9.577 59.375 15.323 90.020 19.153 22.984 3.83 28.73 0 28.73-22.984 0.001-53.63 0.001-109.174 0.001-162.803zM257.046 299.295c-57.46 0-93.851 22.984-109.173 63.205-3.83 11.491-5.746 21.068-3.83 32.56 5.746 36.391 13.407 42.137 47.883 28.73 44.052-15.323 88.104-32.56 130.241-47.883 19.153-7.661 21.068-13.407 11.491-30.645-19.152-32.56-51.714-45.967-76.612-45.967z" horiz-adv-x="917" />
</font>
</defs>
</svg>
